[Matroska-users] problem with High at L5.1

aghaei-a aghaei-a at mapnaec.com
Thu May 6 07:57:19 CEST 2010


Hello


How do I change the MKV codec profile form High at L5.1 to High at L4.1?


Because I can not play the planet earth movie on my LCD TV via USB (My TV
support @l4.1)


 The information for movie has been mentioned below:


General


Complete name                    : D:\bbc\Planet Earth - Episode 2 -
Mountains.mkv


Format                           : Matroska


File size                        : 4.37 GiB


Duration                         : 52mn 20s


Overall bit rate                 : 12.0 Mbps


Encoded date                     : UTC 2009-04-24 20:57:23


Writing application              : mkvmerge v2.3.0 ('Freak U') built on Sep
8 2008 18:32:16


Writing library                  : libebml v0.7.7 + libmatroska v0.8.1


 


Video


ID                               : 1


Format                           : AVC


Format/Info                      : Advanced Video Codec


Format profile                   : High at L5.1


Format settings, CABAC           : Yes


Format settings, ReFrames        : 16 frames


Muxing mode                      : Container profile=Unknown at 5.1


Codec ID                         : V_MPEG4/ISO/AVC


Duration                         : 52mn 17s


Bit rate                         : 11.3 Mbps


Nominal bit rate                 : 12.1 Mbps


Width                            : 1 920 pixels


Height                           : 1 080 pixels


Display aspect ratio             : 16/9


Frame rate                       : 23.976 fps


Resolution                       : 24 bits


Colorimetry                      : 4:2:0


Scan type                        : Progressive


Bits/(Pixel*Frame)               : 0.227


Stream size                      : 4.12 GiB (94%)


Writing library                  : x264 core 55 svn-655


Encoding settings                : cabac=1 / ref=16 / deblock=1:-2:-1 /
analyse=0x3:0x133 / me=umh / subme=7 / brdo=1 / mixed_ref=1 / me_range=16 /
chroma_me=1 / trellis=2 / 8x8dct=1 / cqm=0 / deadzone=21,11 /
chroma_qp_offset=0 / threads=2 / nr=0 / decimate=0 / mbaff=0 / bframes=3 /
b_pyramid=1 / b_adapt=1 / b_bias=0 / direct=3 / wpredb=1 / bime=1 /
keyint=250 / keyint_min=25 / scenecut=40(pre) / rc=2pass / bitrate=12087 /
ratetol=1.5 / rceq='blurCplx^(1-qComp)' / qcomp=0.60 / qpmin=10 / qpmax=51 /
qpstep=4 / cplxblur=20.0 / qblur=0.5 / ip_ratio=1.40 / pb_ratio=1.30


Language                         : English


 


Audio


ID                               : 2


Format                           : AC-3


Format/Info                      : Audio Coding 3


Codec ID                         : A_AC3


Duration                         : 52mn 20s


Bit rate mode                    : Constant


Bit rate                         : 448 Kbps


Channel(s)                       : 6 channels


Channel positions                : Front: L C R, Surround: L R, LFE


Sampling rate                    : 48.0 KHz


Stream size                      : 168 MiB (4%)


Title                            : English (AC3)


Language                         : English


 


Text #1


ID                               : 3


Format                           : ASS


Codec ID                         : S_TEXT/ASS


Codec ID/Info                    : Advanced Sub Station Alpha


Language                         : English


 


Text #2


ID                               : 4


Format                           : UTF-8


Codec ID                         : S_TEXT/UTF8


Codec ID/Info                    : UTF-8 Plain Text


Language                         : Persian


Regards,


saeed


 

-------------- next part --------------
An HTML attachment was scrubbed...
URL: <http://lists.matroska.org/pipermail/matroska-users/attachments/20100506/adfa5a68/attachment-0001.html>


More information about the Matroska-users mailing list